Details for this torrent 

Fantastic Beasts and Where to Find Them (2016) BDRip XviD-MAX
Type:
Video > Movies
Files:
4
Size:
1.31 GiB (1407008388 Bytes)
Spoken language(s):
English
Tag(s):
Fantastic Beasts and Where to 2016 BDRip XviD MAXSPEED
Uploaded:
2017-02-25 09:51:54 GMT
By:
extremezone VIP
Seeders:
0
Leechers:
0
Comments
0  

Info Hash:
D200787E1963FBD7EEC62FD720770563E84235E6




(Problems with magnets links are fixed by upgrading your torrent client!)
 http://i.imgur.com/xsOP4Qu.jpg

Screens:
 
http://i.imgur.com/uOcMcb4.jpg 
http://i.imgur.com/pxQXvup.jpg 
http://i.imgur.com/dBqW9pG.jpg 
http://i.imgur.com/0TAGUuB.jpg

ScreenCaps:
 
http://i.imgur.com/LMl0FQw.jpg

Fantastic Beasts and Where to Find Them (2016) BDRip XviD-MAX
Format                                   : AVI
Format/Info                              : Audio Video Interleave
Format profile                           : OpenDML
Format settings                          : rec
File size                                : 1.30 GiB
Duration                                 : 2h 12mn
Overall bit rate                         : 1 405 Kbps
Writing application                      : VirtualDubMod 1.5.10.2 (build 2542/release)
Writing library                          : VirtualDubMod build 2542/release
Original source form                     : MAX TORRENTZ
Copyright                                : SIGISMUNT

Video
ID                                       : 0
Format                                   : MPEG-4 Visual
Format profile                           : Advanced [email protected]
Format settings, BVOP                    : 2
Format settings, QPel                    : No
Format settings, GMC                     : No warppoints
Format settings, Matrix                  : Default (MPEG)
Codec ID                                 : XVID
Codec ID/Hint                            : XviD
Duration                                 : 2h 12mn
Bit rate                                 : 1 015 Kbps
Width                                    : 720 pixels
Height                                   : 304 pixels
Display aspect ratio                     : 2.35:1
Frame rate                               : 23.976 fps
Color space                              : YUV
Chroma subsampling                       : 4:2:0
Bit depth                                : 8 bits
Scan type                                : Progressive
Compression mode                         : Lossy
Bits/(Pixel*Frame)                       : 0.194
Stream size                              : 965 MiB (72%)
Writing library                          : XviD 1.2.1 (UTC 2008-12-04)

Audio
ID                                       : 1
Format                                   : AC-3
Format/Info                              : Audio Coding 3
Mode extension                           : CM (complete main)
Format settings, Endianness              : Big
Codec ID                                 : 2000
Duration                                 : 2h 12mn
Bit rate mode                            : Constant
Bit rate                                 : 384 Kbps
Channel(s)                               : 6 channels
Channel positions                        : Front: L C R, Side: L R, LFE
Sampling rate                            : 48.0 KHz
Bit depth                                : 16 bits
Compression mode                         : Lossy
Stream size                              : 365 MiB (27%)
Alignment                                : Aligned on interleaves
Interleave, duration                     : 64 ms (1.53 video frames)
Interleave, preload duration             : 192 ms